General

Unique ID : 235794862068935822777268729663333421786 (0xB1647045691F011FB7E23C6086DD52DA)
Complete name : /movies/i/Interstellar_2014_1080p_BluRay_AdiT_30NAMA.mkv
Format : Matroska
Format version : Version 4 / Version 2
File size : 8.76 GiB
Duration : 2 h 49 min
Overall bit rate : 7 422 kb/s
Movie name : Interstellar (2014) IMAX 1080p Bluray AC3 x264 - AdiT
Encoded date : UTC 2015-03-18 19:22:36
Writing application : mkvmerge v7.7.0 ('Six Voices') 64bit built on Feb 28 2015 23:39:33
Writing library : libebml v1.3.1 + libmatroska v1.4.2

Video

ID : 1
Format : AVC
Format/Info : Advanced Video Codec
Format profile : High@L4.1
Format settings : CABAC / 4 Ref Frames
Format settings, CABAC : Yes
Format settings, RefFrames : 4 frames
Codec ID : V_MPEG4/ISO/AVC
Duration : 2 h 49 min
Bit rate : 6 780 kb/s
Width : 1 920 pixels
Height : 1 080 pixels
Display aspect ratio : 16:9
Frame rate mode : Constant
Frame rate : 23.976 (24000/1001) FPS
Color space : YUV
Chroma subsampling : 4:2:0
Bit depth : 8 bits
Scan type : Progressive
Bits/(Pixel*Frame) : 0.136
Stream size : 8.01 GiB (91%)
Writing library : x264 core 142 r2431 ac76440
Encoding settings : cabac=1 / ref=4 / deblock=1:-2:-2 / analyse=0x3:0x113 / me=umh / subme=10 / psy=1 / psy_rd=1.00:0.15 / mixed_ref=1 / me_range=64 / chroma_me=1 / trellis=2 / 8x8dct=1 / cqm=0 / deadzone=21,11 / fast_pskip=0 / chroma_qp_offset=-3 / threads=12 / lookahead_threads=2 / sliced_threads=0 / nr=0 / decimate=1 / interlaced=0 / bluray_compat=0 / constrained_intra=0 / bframes=9 / b_pyramid=2 / b_adapt=2 / b_bias=0 / direct=1 / weightb=1 / open_gop=0 / weightp=2 / keyint=240 / keyint_min=23 / scenecut=40 / intra_refresh=0 / rc_lookahead=240 / rc=crf / mbtree=1 / crf=21.0 / qcomp=0.60 / qpmin=10 / qpmax=51 / qpstep=4 / vbv_maxrate=50000 / vbv_bufsize=62500 / crf_max=0.0 / nal_hrd=none / filler=0 / ip_ratio=1.40 / aq=1:1.00
Language : English
Default : Yes
Forced : No
Color range : Limited
Color primaries : BT.709
Transfer characteristics : BT.709
Matrix coefficients : BT.709

Audio

ID : 2
Format : AC-3
Format/Info : Audio Coding 3
Format settings, Endianness : Big
Codec ID : A_AC3
Duration : 2 h 49 min
Bit rate mode : Constant
Bit rate : 640 kb/s
Channel(s) : 6 channels
Channel positions : Front: L C R, Side: L R, LFE
Sampling rate : 48.0 kHz
Frame rate : 31.250 FPS (1536 SPF)
Bit depth : 16 bits
Compression mode : Lossy
Stream size : 774 MiB (9%)
Language : English
Service kind : Complete Main
Default : Yes
Forced : No

Text

ID : 3
Format : UTF-8
Codec ID : S_TEXT/UTF8
Codec ID/Info : UTF-8 Plain Text
Duration : 2 h 44 min
Bit rate : 57 b/s
Count of elements : 2001
Stream size : 69.0 KiB (0%)
Language : English
Default : Yes
Forced : No

Menu

00:00:00.000 : en:Chapter 1
00:09:35.491 : en:Chapter 2
00:17:12.322 : en:Chapter 3
00:25:00.749 : en:Chapter 4
00:35:45.393 : en:Chapter 5
00:42:16.867 : en:Chapter 6
00:50:19.891 : en:Chapter 7
00:54:48.076 : en:Chapter 8
00:58:59.702 : en:Chapter 9
01:06:15.012 : en:Chapter 10
01:17:28.185 : en:Chapter 11
01:25:32.001 : en:Chapter 12
01:34:31.999 : en:Chapter 13
01:46:14.701 : en:Chapter 14
01:55:34.552 : en:Chapter 15
02:02:14.368 : en:Chapter 16
02:12:56.843 : en:Chapter 17
02:20:53.820 : en:Chapter 18
02:35:12.094 : en:Chapter 19
02:43:59.830 : en:Chapter 20