General

Unique ID : 223228599427295621829766223474069673661 (0xA7F043B03F38D5D4A84DB751FE7116BD)
Complete name : /movies/h/Hacksaw_Ridge_2016_HYBRID_1080p_BluRay_AC3_DON_30NAMA.mkv
Format : Matroska
Format version : Version 4 / Version 2
File size : 11.6 GiB
Duration : 2 h 19 min
Overall bit rate : 11.9 Mb/s
Movie name : Hacksaw.Ridge.2016.Hybrid.1080p.BluRay.DD5.1.x264-DON
Encoded date : UTC 2017-02-24 13:56:31
Writing application : mkvmerge v7.8.0 ('River Man') 32bit built on Mar 27 2015 16:18:02
Writing library : libebml v1.3.1 + libmatroska v1.4.2

Video

ID : 1
Format : AVC
Format/Info : Advanced Video Codec
Format profile : High@L4.1
Format settings : CABAC / 5 Ref Frames
Format settings, CABAC : Yes
Format settings, RefFrames : 5 frames
Codec ID : V_MPEG4/ISO/AVC
Duration : 2 h 19 min
Bit rate : 11.3 Mb/s
Width : 1 920 pixels
Height : 804 pixels
Display aspect ratio : 2.40:1
Frame rate mode : Constant
Frame rate : 23.976 (24000/1001) FPS
Color space : YUV
Chroma subsampling : 4:2:0
Bit depth : 8 bits
Scan type : Progressive
Bits/(Pixel*Frame) : 0.305
Stream size : 11.0 GiB (95%)
Writing library : x264 core 146 r2538 121396c
Encoding settings : cabac=1 / ref=5 / deblock=1:-3:-3 / analyse=0x3:0x133 / me=umh / subme=10 / psy=1 / psy_rd=1.00:0.00 / mixed_ref=1 / me_range=32 / chroma_me=1 / trellis=2 / 8x8dct=1 / cqm=0 / deadzone=21,11 / fast_pskip=0 / chroma_qp_offset=-2 / threads=6 / lookahead_threads=1 / sliced_threads=0 / nr=0 / decimate=0 / interlaced=0 / bluray_compat=0 / constrained_intra=0 / bframes=7 / b_pyramid=2 / b_adapt=2 / b_bias=0 / direct=3 / weightb=1 / open_gop=0 / weightp=2 / keyint=250 / keyint_min=23 / scenecut=40 / intra_refresh=0 / rc=crf / mbtree=0 / crf=15.8 / qcomp=0.60 / qpmin=0 / qpmax=69 / qpstep=4 / ip_ratio=1.40 / pb_ratio=1.30 / aq=3:0.80 / zones=0,791,crf=13
Language : English
Default : Yes
Forced : No

Audio

ID : 2
Format : AC-3
Format/Info : Audio Coding 3
Format settings, Endianness : Big
Codec ID : A_AC3
Duration : 2 h 19 min
Bit rate mode : Constant
Bit rate : 640 kb/s
Channel(s) : 6 channels
Channel positions : Front: L C R, Side: L R, LFE
Sampling rate : 48.0 kHz
Frame rate : 31.250 FPS (1536 SPF)
Bit depth : 16 bits
Compression mode : Lossy
Stream size : 638 MiB (5%)
Service kind : Complete Main
Default : Yes
Forced : No

Text #1

ID : 3
Format : UTF-8
Codec ID : S_TEXT/UTF8
Codec ID/Info : UTF-8 Plain Text
Duration : 2 h 8 min
Bit rate : 48 b/s
Count of elements : 1342
Stream size : 46.1 KiB (0%)
Language : English
Default : No
Forced : No

Text #2

ID : 4
Format : UTF-8
Codec ID : S_TEXT/UTF8
Codec ID/Info : UTF-8 Plain Text
Duration : 2 h 10 min
Bit rate : 45 b/s
Count of elements : 1440
Stream size : 43.3 KiB (0%)
Language : Romanian
Default : No
Forced : No

Text #3

ID : 5
Format : UTF-8
Codec ID : S_TEXT/UTF8
Codec ID/Info : UTF-8 Plain Text
Duration : 2 h 9 min
Bit rate : 55 b/s
Count of elements : 1655
Stream size : 53.2 KiB (0%)
Title : SDH
Language : English
Default : No
Forced : No

Menu

00:00:00.000 : :00:00:00.000
00:09:18.766 : :00:09:18.766
00:18:41.996 : :00:18:41.996
00:26:34.510 : :00:26:34.510
00:33:00.562 : :00:33:00.562
00:40:04.152 : :00:40:04.152
00:50:07.212 : :00:50:07.212
00:57:01.543 : :00:57:01.543
01:04:21.649 : :01:04:21.649
01:17:50.207 : :01:17:50.207
01:23:58.700 : :01:23:58.700
01:31:21.726 : :01:31:21.726
01:39:02.812 : :01:39:02.812
01:46:07.569 : :01:46:07.569
01:59:48.306 : :01:59:48.306
02:07:13.292 : :02:07:13.292