General

Unique ID : 226011763060919061790234207851400452802 (0xAA08483FFB38C85AA7946F677C0CDAC2)
Complete name : /movies/f/First_Man_2018_IMAX_1080p_BluRay_AdiT_30NAMA.mkv
Format : Matroska
Format version : Version 4 / Version 2
File size : 8.48 GiB
Duration : 2 h 20 min
Overall bit rate : 8 612 kb/s
Movie name : First Man (2018) IMAX 1080p Bluray AC3 x264 Commentary - AdiT
Encoded date : UTC 2019-01-25 04:43:03
Writing application : mkvmerge v30.1.0 ('Forever And More') 64-bit
Writing library : libebml v1.3.6 + libmatroska v1.4.9

Video

ID : 1
Format : AVC
Format/Info : Advanced Video Codec
Format profile : High@L4.1
Format settings : CABAC / 4 Ref Frames
Format settings, CABAC : Yes
Format settings, RefFrames : 4 frames
Codec ID : V_MPEG4/ISO/AVC
Duration : 2 h 20 min
Bit rate : 7 778 kb/s
Width : 1 920 pixels
Height : 1 080 pixels
Display aspect ratio : 16:9
Frame rate mode : Constant
Frame rate : 23.976 (24000/1001) FPS
Color space : YUV
Chroma subsampling : 4:2:0
Bit depth : 8 bits
Scan type : Progressive
Bits/(Pixel*Frame) : 0.156
Stream size : 7.66 GiB (90%)
Writing library : x264 core 155 r2901 7d0ff22
Encoding settings : cabac=1 / ref=4 / deblock=1:-2:-2 / analyse=0x3:0x133 / me=umh / subme=10 / psy=1 / psy_rd=1.00:0.05 / mixed_ref=1 / me_range=48 / chroma_me=1 / trellis=2 / 8x8dct=1 / cqm=0 / deadzone=21,11 / fast_pskip=0 / chroma_qp_offset=-3 / threads=18 / lookahead_threads=2 / sliced_threads=0 / nr=0 / decimate=0 / interlaced=0 / bluray_compat=0 / constrained_intra=0 / bframes=5 / b_pyramid=2 / b_adapt=2 / b_bias=0 / direct=1 / weightb=1 / open_gop=0 / weightp=2 / keyint=240 / keyint_min=23 / scenecut=40 / intra_refresh=0 / rc_lookahead=120 / rc=crf / mbtree=0 / crf=22.5 / qcomp=0.60 / qpmin=0 / qpmax=69 / qpstep=4 / vbv_maxrate=32000 / vbv_bufsize=38000 / crf_max=0.0 / nal_hrd=none / filler=0 / ip_ratio=1.30 / pb_ratio=1.20 / aq=2:0.80
Language : English
Default : Yes
Forced : No
Color range : Limited
Color primaries : BT.709
Transfer characteristics : BT.709
Matrix coefficients : BT.709

Audio #1

ID : 2
Format : AC-3
Format/Info : Audio Coding 3
Format settings, Endianness : Big
Codec ID : A_AC3
Duration : 2 h 20 min
Bit rate mode : Constant
Bit rate : 640 kb/s
Channel(s) : 6 channels
Channel positions : Front: L C R, Side: L R, LFE
Sampling rate : 48.0 kHz
Frame rate : 31.250 FPS (1536 SPF)
Bit depth : 16 bits
Compression mode : Lossy
Stream size : 645 MiB (7%)
Language : English
Service kind : Complete Main
Default : Yes
Forced : No

Audio #2

ID : 3
Format : AC-3
Format/Info : Audio Coding 3
Mode : Dolby Digital
Format settings, Endianness : Big
Codec ID : A_AC3
Duration : 2 h 20 min
Bit rate mode : Constant
Bit rate : 192 kb/s
Channel(s) : 2 channels
Channel positions : Front: L R
Sampling rate : 48.0 kHz
Frame rate : 31.250 FPS (1536 SPF)
Bit depth : 16 bits
Compression mode : Lossy
Stream size : 194 MiB (2%)
Title : Commentary by director/producer Damien Chazelle, writer/executive producer Josh Singer, and editor Tom Cross
Language : English
Service kind : Complete Main
Default : No
Forced : No

Text

ID : 4
Format : UTF-8
Codec ID : S_TEXT/UTF8
Codec ID/Info : UTF-8 Plain Text
Duration : 2 h 12 min
Bit rate : 48 b/s
Count of elements : 1377
Stream size : 46.5 KiB (0%)
Language : English
Default : Yes
Forced : No

Menu

00:00:00.000 : en:Chapter 1
00:07:20.440 : en:Chapter 2
00:13:35.982 : en:Chapter 3
00:19:53.192 : en:Chapter 4
00:25:59.725 : en:Chapter 5
00:31:30.138 : en:Chapter 6
00:40:17.248 : en:Chapter 7
00:49:57.703 : en:Chapter 8
01:00:03.016 : en:Chapter 9
01:05:42.397 : en:Chapter 10
01:11:05.720 : en:Chapter 11
01:15:12.967 : en:Chapter 12
01:21:32.888 : en:Chapter 13
01:30:35.305 : en:Chapter 14
01:39:00.726 : en:Chapter 15
01:48:58.490 : en:Chapter 16
01:54:44.419 : en:Chapter 17
02:00:14.916 : en:Chapter 18
02:09:55.705 : en:Chapter 19
02:14:02.743 : en:Chapter 20