General

Unique ID : 193590379844250936375817814450383711275 (0x91A426A49384CAB85D02514DE5C96C2B)
Complete name : /movies/c/Can_You_Ever_Forgive_Me_2018_720p_x265_BrRip_10bit_6CH_PSA_30NAMA.mkv
Format : Matroska
Format version : Version 4 / Version 2
File size : 759 MiB
Duration : 1 h 46 min
Overall bit rate : 998 kb/s
Movie name : PSArips.com | Can.You.Ever.Forgive.Me.2018.720p.10bit.BluRay.6CH.x265.HEVC-PSA
Encoded date : UTC 2019-03-30 18:46:19
Writing application : mkvmerge v32.0.0 ('Astral Progressions') 64-bit
Writing library : libebml v1.3.7 + libmatroska v1.5.0

Video

ID : 1
Format : HEVC
Format/Info : High Efficiency Video Coding
Format profile : Main 10@L3.1@Main
Codec ID : V_MPEGH/ISO/HEVC
Duration : 1 h 46 min
Bit rate : 790 kb/s
Width : 1 280 pixels
Height : 536 pixels
Display aspect ratio : 2.40:1
Frame rate mode : Constant
Frame rate : 23.976 (24000/1001) FPS
Color space : YUV
Chroma subsampling : 4:2:0
Bit depth : 10 bits
Bits/(Pixel*Frame) : 0.048
Stream size : 601 MiB (79%)
Default : Yes
Forced : No

Audio

ID : 2
Format : AAC
Format/Info : Advanced Audio Codec
Format profile : HE-AAC / LC
Format settings : Explicit
Codec ID : A_AAC-2
Duration : 1 h 46 min
Bit rate : 206 kb/s
Channel(s) : 6 channels
Channel(s)_Original : 18 channels
Channel positions : Front: 14, Side: C, Back: C, LFE= 2
Sampling rate : 48.0 kHz / 24.0 kHz
Frame rate : 23.438 FPS (1024 SPF)
Compression mode : Lossy
Delay relative to video : 23 ms
Stream size : 156 MiB (21%)
Language : English
Default : Yes
Forced : No

Text #1

ID : 3
Format : UTF-8
Codec ID : S_TEXT/UTF8
Codec ID/Info : UTF-8 Plain Text
Duration : 1 h 45 min
Bit rate : 61 b/s
Count of elements : 1625
Stream size : 47.5 KiB (0%)
Title : ENG
Language : English
Default : Yes
Forced : No

Text #2

ID : 4
Format : UTF-8
Codec ID : S_TEXT/UTF8
Codec ID/Info : UTF-8 Plain Text
Duration : 1 h 45 min
Bit rate : 67 b/s
Count of elements : 1812
Stream size : 51.8 KiB (0%)
Title : ENG SDH
Language : English
Default : No
Forced : No