General

Unique ID : 270567216380794018454065965603473165916 (0xCB8D59B3CBE8C7A11F2DACFC27018E5C)
Complete name : /movies/c/Can_You_Ever_Forgive_Me_2018_720p_BrRip_MkvCage_30NAMA.mkv
Format : Matroska
Format version : Version 4 / Version 2
File size : 1.00 GiB
Duration : 1 h 46 min
Overall bit rate : 1 351 kb/s
Encoded date : UTC 2019-03-30 02:31:45
Writing application : mkvmerge v28.2.0 ('The Awakening') 64-bit
Writing library : libebml v1.3.6 + libmatroska v1.4.9

Video

ID : 1
Format : AVC
Format/Info : Advanced Video Codec
Format profile : High@L4.1
Format settings : CABAC / 12 Ref Frames
Format settings, CABAC : Yes
Format settings, RefFrames : 12 frames
Codec ID : V_MPEG4/ISO/AVC
Duration : 1 h 46 min
Bit rate : 1 222 kb/s
Width : 1 280 pixels
Height : 536 pixels
Display aspect ratio : 2.40:1
Frame rate mode : Constant
Frame rate : 23.976 (24000/1001) FPS
Color space : YUV
Chroma subsampling : 4:2:0
Bit depth : 8 bits
Scan type : Progressive
Bits/(Pixel*Frame) : 0.074
Stream size : 929 MiB (90%)
Writing library : x264 core 157 r2935 545de2f
Encoding settings : cabac=1 / ref=12 / deblock=1:-1:-1 / analyse=0x3:0x133 / me=umh / subme=10 / psy=1 / psy_rd=1.00:0.10 / mixed_ref=1 / me_range=24 / chroma_me=1 / trellis=2 / 8x8dct=1 / cqm=0 / deadzone=21,11 / fast_pskip=1 / chroma_qp_offset=-3 / threads=17 / lookahead_threads=2 / sliced_threads=0 / nr=0 / decimate=1 / interlaced=0 / bluray_compat=0 / constrained_intra=0 / bframes=8 / b_pyramid=2 / b_adapt=2 / b_bias=0 / direct=3 / weightb=1 / open_gop=0 / weightp=2 / keyint=250 / keyint_min=23 / scenecut=40 / intra_refresh=0 / rc_lookahead=60 / rc=2pass / mbtree=1 / bitrate=1222 / ratetol=1.0 / qcomp=0.60 / qpmin=0 / qpmax=69 / qpstep=4 / cplxblur=20.0 / qblur=0.5 / ip_ratio=1.40 / aq=1:1.00
Default : Yes
Forced : No

Audio

ID : 2
Format : AAC
Format/Info : Advanced Audio Codec
Format profile : HE-AAC / LC
Format settings : Explicit
Codec ID : A_AAC-2
Duration : 1 h 46 min
Bit rate : 128 kb/s
Channel(s) : 2 channels
Channel positions : Front: L R
Sampling rate : 48.0 kHz / 24.0 kHz
Frame rate : 23.438 FPS (1024 SPF)
Compression mode : Lossy
Delay relative to video : 43 ms
Stream size : 97.4 MiB (9%)
Language : English
Default : Yes
Forced : No

Text #1

ID : 3
Format : UTF-8
Codec ID : S_TEXT/UTF8
Codec ID/Info : UTF-8 Plain Text
Duration : 1 h 45 min
Bit rate : 61 b/s
Count of elements : 1624
Stream size : 47.5 KiB (0%)
Language : English
Default : Yes
Forced : No

Text #2

ID : 4
Format : UTF-8
Codec ID : S_TEXT/UTF8
Codec ID/Info : UTF-8 Plain Text
Duration : 1 h 45 min
Bit rate : 67 b/s
Count of elements : 1812
Stream size : 51.8 KiB (0%)
Title : SDH
Language : English
Default : No
Forced : No

Menu

00:00:00.000 : en:Chapter 01
00:05:35.627 : en:Chapter 02
00:11:12.338 : en:Chapter 03
00:16:57.475 : en:Chapter 04
00:23:21.650 : en:Chapter 05
00:26:36.678 : en:Chapter 06
00:32:00.710 : en:Chapter 07
00:37:40.091 : en:Chapter 08
00:42:34.177 : en:Chapter 09
00:46:02.843 : en:Chapter 10
00:49:25.421 : en:Chapter 11
00:55:57.938 : en:Chapter 12
00:58:12.656 : en:Chapter 13
01:01:07.497 : en:Chapter 14
01:03:36.354 : en:Chapter 15
01:07:19.953 : en:Chapter 16
01:12:42.858 : en:Chapter 17
01:16:16.947 : en:Chapter 18
01:21:52.783 : en:Chapter 19
01:24:47.708 : en:Chapter 20
01:26:40.028 : en:Chapter 21
01:30:46.524 : en:Chapter 22
01:36:27.907 : en:Chapter 23
01:38:58.182 : en:Chapter 24