General

Unique ID : 0 (0x0)
Complete name : /movies/c/Can_You_Ever_Forgive_Me_2018_720p_BluRay_AMIABLE_30NAMA.mkv
Format : Matroska
Format version : Version 4 / Version 2
File size : 5.46 GiB
Duration : 1 h 46 min
Overall bit rate : 7 353 kb/s
Encoded date : UTC 2010-02-22 21:41:29
Writing application : no_variable_data
Writing library : no_variable_data

Video

ID : 1
Format : AVC
Format/Info : Advanced Video Codec
Format profile : High@L4.1
Format settings : CABAC / 5 Ref Frames
Format settings, CABAC : Yes
Format settings, RefFrames : 5 frames
Codec ID : V_MPEG4/ISO/AVC
Duration : 1 h 46 min
Bit rate : 5 842 kb/s
Width : 1 280 pixels
Height : 536 pixels
Display aspect ratio : 2.40:1
Frame rate mode : Constant
Frame rate : 23.976 (24000/1001) FPS
Color space : YUV
Chroma subsampling : 4:2:0
Bit depth : 8 bits
Scan type : Progressive
Bits/(Pixel*Frame) : 0.355
Stream size : 4.23 GiB (77%)
Writing library : x264 core 157 r2969 d4099dd
Encoding settings : cabac=1 / ref=5 / deblock=1:-3:-3 / analyse=0x3:0x113 / me=umh / subme=8 / psy=1 / psy_rd=1.00:0.00 / mixed_ref=1 / me_range=24 / chroma_me=1 / trellis=2 / 8x8dct=1 / cqm=0 / deadzone=21,11 / fast_pskip=1 / chroma_qp_offset=-2 / threads=17 / lookahead_threads=2 / sliced_threads=0 / nr=0 / decimate=1 / interlaced=0 / bluray_compat=0 / constrained_intra=0 / bframes=3 / b_pyramid=2 / b_adapt=2 / b_bias=0 / direct=3 / weightb=1 / open_gop=0 / weightp=2 / keyint=240 / keyint_min=24 / scenecut=40 / intra_refresh=0 / rc_lookahead=50 / rc=2pass / mbtree=1 / bitrate=5842 / ratetol=1.0 / qcomp=0.60 / qpmin=0 / qpmax=69 / qpstep=4 / cplxblur=20.0 / qblur=0.5 / ip_ratio=1.40 / aq=3:0.75
Default : Yes
Forced : No
Statistics Tags Issue : no_variable_data 1970-01-01 00:00:00 / no_variable_data 2010-02-22 21:41:29
FromStats_BitRate : 5841315
FromStats_Duration : 01:46:22.835000000
FromStats_FrameCount : 153035
FromStats_StreamSize : 4660518994

Audio

ID : 2
Format : DTS
Format/Info : Digital Theater Systems
Mode : 16
Format settings, Endianness : Big
Codec ID : A_DTS
Duration : 1 h 46 min
Bit rate mode : Constant
Bit rate : 1 509 kb/s
Channel(s) : 6 channels
Channel positions : Front: L C R, Side: L R, LFE
Sampling rate : 48.0 kHz
Frame rate : 93.750 FPS (512 SPF)
Bit depth : 24 bits
Compression mode : Lossy
Stream size : 1.12 GiB (21%)
Language : English
Default : Yes
Forced : No
Statistics Tags Issue : no_variable_data 1970-01-01 00:00:00 / no_variable_data 2010-02-22 21:41:29
FromStats_BitRate : 1508999
FromStats_Duration : 01:46:22.838000000
FromStats_FrameCount : 598391
FromStats_StreamSize : 1203962692

Text #1

ID : 3
Format : UTF-8
Codec ID : S_TEXT/UTF8
Codec ID/Info : UTF-8 Plain Text
Language : English
Default : No
Forced : No
Statistics Tags Issue : no_variable_data 1970-01-01 00:00:00 / no_variable_data 2010-02-22 21:41:29
FromStats_BitRate : 61
FromStats_Duration : 01:45:13.891000000
FromStats_FrameCount : 1624
FromStats_StreamSize : 48649

Text #2

ID : 4
Format : UTF-8
Codec ID : S_TEXT/UTF8
Codec ID/Info : UTF-8 Plain Text
Title : SDH
Language : English
Default : No
Forced : No
Statistics Tags Issue : no_variable_data 1970-01-01 00:00:00 / no_variable_data 2010-02-22 21:41:29
FromStats_BitRate : 67
FromStats_Duration : 01:45:28.364000000
FromStats_FrameCount : 1812
FromStats_StreamSize : 53065

Menu

00:00:00.000 : en:Chapter 01
00:05:35.627 : en:Chapter 02
00:11:12.338 : en:Chapter 03
00:16:57.475 : en:Chapter 04
00:23:21.650 : en:Chapter 05
00:26:36.678 : en:Chapter 06
00:32:00.710 : en:Chapter 07
00:37:40.091 : en:Chapter 08
00:42:34.177 : en:Chapter 09
00:46:02.843 : en:Chapter 10
00:49:25.421 : en:Chapter 11
00:55:57.938 : en:Chapter 12
00:58:12.656 : en:Chapter 13
01:01:07.497 : en:Chapter 14
01:03:36.354 : en:Chapter 15
01:07:19.953 : en:Chapter 16
01:12:42.858 : en:Chapter 17
01:16:16.947 : en:Chapter 18
01:21:52.783 : en:Chapter 19
01:24:47.708 : en:Chapter 20
01:26:40.028 : en:Chapter 21
01:30:46.524 : en:Chapter 22
01:36:27.907 : en:Chapter 23
01:38:58.182 : en:Chapter 24