General

Unique ID : 1217127665135282084211745403542254953 (0xEA6906E831D6C762B4A58311053569)
Complete name : /movies/b/Bohemian_Rhapsody_2018_1080p_BrRip_AC3_MkvCage_30NAMA.mkv
Format : Matroska
Format version : Version 4 / Version 2
File size : 3.42 GiB
Duration : 2 h 14 min
Overall bit rate : 3 638 kb/s
Movie name : Bohemian.Rhapsody.2018.1080p.BluRay.AC3.x264.MkvCage.ws
Encoded date : UTC 2019-02-04 10:18:36
Writing application : mkvmerge v30.1.0 ('Forever And More') 64-bit
Writing library : libebml v1.3.6 + libmatroska v1.4.9

Video

ID : 2
Format : AVC
Format/Info : Advanced Video Codec
Format profile : High@L4.1
Format settings : CABAC / 5 Ref Frames
Format settings, CABAC : Yes
Format settings, RefFrames : 5 frames
Codec ID : V_MPEG4/ISO/AVC
Duration : 2 h 14 min
Bit rate : 3 200 kb/s
Width : 1 920 pixels
Height : 804 pixels
Display aspect ratio : 2.40:1
Frame rate mode : Constant
Frame rate : 23.976 (24000/1001) FPS
Color space : YUV
Chroma subsampling : 4:2:0
Bit depth : 8 bits
Scan type : Progressive
Bits/(Pixel*Frame) : 0.086
Stream size : 3.00 GiB (88%)
Writing library : x264 core 157 r2935 545de2f
Encoding settings : cabac=1 / ref=5 / deblock=1:-2:-2 / analyse=0x3:0x133 / me=umh / subme=10 / psy=1 / psy_rd=1.00:0.10 / mixed_ref=1 / me_range=24 / chroma_me=1 / trellis=2 / 8x8dct=1 / cqm=0 / deadzone=21,11 / fast_pskip=1 / chroma_qp_offset=-3 / threads=25 / lookahead_threads=4 / sliced_threads=0 / nr=0 / decimate=1 / interlaced=0 / bluray_compat=0 / constrained_intra=0 / bframes=8 / b_pyramid=2 / b_adapt=2 / b_bias=0 / direct=3 / weightb=1 / open_gop=0 / weightp=2 / keyint=250 / keyint_min=23 / scenecut=40 / intra_refresh=0 / rc_lookahead=60 / rc=2pass / mbtree=1 / bitrate=3200 / ratetol=1.0 / qcomp=0.60 / qpmin=0 / qpmax=69 / qpstep=4 / cplxblur=20.0 / qblur=0.5 / ip_ratio=1.40 / aq=1:1.00
Default : Yes
Forced : No

Audio

ID : 3
Format : AC-3
Format/Info : Audio Coding 3
Format settings, Endianness : Big
Codec ID : A_AC3
Duration : 2 h 14 min
Bit rate mode : Constant
Bit rate : 448 kb/s
Channel(s) : 6 channels
Channel positions : Front: L C R, Side: L R, LFE
Sampling rate : 48.0 kHz
Frame rate : 31.250 FPS (1536 SPF)
Bit depth : 16 bits
Compression mode : Lossy
Stream size : 431 MiB (12%)
Title : Bohemian.Rhapsody.2018.1080p.BluRay.AC3.x264.MkvCage.ws
Language : English
Service kind : Complete Main
Default : Yes
Forced : No

Text

ID : 1
Format : UTF-8
Codec ID : S_TEXT/UTF8
Codec ID/Info : UTF-8 Plain Text
Duration : 2 h 7 min
Bit rate : 62 b/s
Count of elements : 2064
Stream size : 58.5 KiB (0%)
Language : English
Default : Yes
Forced : No

Menu

00:00:00.000 : en:Chapter 01
00:03:48.436 : en:Chapter 02
00:07:45.465 : en:Chapter 03
00:11:16.592 : en:Chapter 04
00:17:41.769 : en:Chapter 05
00:21:03.178 : en:Chapter 06
00:27:23.850 : en:Chapter 07
00:33:34.470 : en:Chapter 08
00:37:22.281 : en:Chapter 09
00:45:24.012 : en:Chapter 10
00:52:19.344 : en:Chapter 11
00:56:57.205 : en:Chapter 12
01:03:11.370 : en:Chapter 13
01:10:44.990 : en:Chapter 14
01:15:25.729 : en:Chapter 15
01:21:45.650 : en:Chapter 16
01:26:58.880 : en:Chapter 17
01:32:18.533 : en:Chapter 18
01:36:43.923 : en:Chapter 19
01:43:25.574 : en:Chapter 20
01:50:23.283 : en:Chapter 21
01:54:22.897 : en:Chapter 22
02:00:41.108 : en:Chapter 23
02:07:53.332 : en:Chapter 24