General

Unique ID : 189751014464809587662029757265391950147 (0x8EC0B75098D79C097BD52EA75FA49943)
Complete name : /movies/b/Bohemian_Rhapsody_2018_1080p_BluRay_AdiT_30NAMA.mkv
Format : Matroska
Format version : Version 4 / Version 2
File size : 6.11 GiB
Duration : 2 h 14 min
Overall bit rate : 6 494 kb/s
Movie name : Bohemian Rhapsody (2018) 1080p Bluray AC3 x264 - AdiT
Encoded date : UTC 2019-02-05 08:10:27
Writing application : mkvmerge v30.1.0 ('Forever And More') 64-bit
Writing library : libebml v1.3.6 + libmatroska v1.4.9

Video

ID : 1
Format : AVC
Format/Info : Advanced Video Codec
Format profile : High@L4.1
Format settings : CABAC / 5 Ref Frames
Format settings, CABAC : Yes
Format settings, RefFrames : 5 frames
Codec ID : V_MPEG4/ISO/AVC
Duration : 2 h 14 min
Bit rate : 5 852 kb/s
Width : 1 920 pixels
Height : 804 pixels
Display aspect ratio : 2.40:1
Frame rate mode : Constant
Frame rate : 23.976 (24000/1001) FPS
Color space : YUV
Chroma subsampling : 4:2:0
Bit depth : 8 bits
Scan type : Progressive
Bits/(Pixel*Frame) : 0.158
Stream size : 5.50 GiB (90%)
Writing library : x264 core 157 r2935 545de2f
Encoding settings : cabac=1 / ref=5 / deblock=1:-3:-3 / analyse=0x3:0x133 / me=umh / subme=10 / psy=1 / psy_rd=1.00:0.05 / mixed_ref=1 / me_range=48 / chroma_me=1 / trellis=2 / 8x8dct=1 / cqm=0 / deadzone=21,11 / fast_pskip=0 / chroma_qp_offset=-3 / threads=18 / lookahead_threads=2 / sliced_threads=0 / nr=0 / decimate=0 / interlaced=0 / bluray_compat=0 / constrained_intra=0 / bframes=6 / b_pyramid=2 / b_adapt=2 / b_bias=0 / direct=1 / weightb=1 / open_gop=0 / weightp=2 / keyint=240 / keyint_min=23 / scenecut=40 / intra_refresh=0 / rc_lookahead=120 / rc=crf / mbtree=0 / crf=20.2 / qcomp=0.55 / qpmin=0 / qpmax=69 / qpstep=4 / vbv_maxrate=32000 / vbv_bufsize=38000 / crf_max=0.0 / nal_hrd=none / filler=0 / ip_ratio=1.30 / pb_ratio=1.20 / aq=3:0.80
Language : English
Default : Yes
Forced : No
Color range : Limited
Color primaries : BT.709
Transfer characteristics : BT.709
Matrix coefficients : BT.709

Audio

ID : 2
Format : AC-3
Format/Info : Audio Coding 3
Format settings, Endianness : Big
Codec ID : A_AC3
Duration : 2 h 14 min
Bit rate mode : Constant
Bit rate : 640 kb/s
Channel(s) : 6 channels
Channel positions : Front: L C R, Side: L R, LFE
Sampling rate : 48.0 kHz
Frame rate : 31.250 FPS (1536 SPF)
Bit depth : 16 bits
Compression mode : Lossy
Stream size : 616 MiB (10%)
Language : English
Service kind : Complete Main
Default : Yes
Forced : No

Text

ID : 3
Format : UTF-8
Codec ID : S_TEXT/UTF8
Codec ID/Info : UTF-8 Plain Text
Duration : 2 h 7 min
Bit rate : 61 b/s
Count of elements : 2060
Stream size : 57.3 KiB (0%)
Language : English
Default : Yes
Forced : No

Menu

00:00:00.000 : :Chapter 01
00:03:48.728 : :Chapter 02
00:07:45.465 : :Chapter 03
00:11:16.593 : :Chapter 04
00:17:41.811 : :Chapter 05
00:21:03.179 : :Chapter 06
00:27:24.184 : :Chapter 07
00:33:34.846 : :Chapter 08
00:37:22.282 : :Chapter 09
00:45:24.013 : :Chapter 10
00:52:19.595 : :Chapter 11
00:56:57.205 : :Chapter 12
01:03:11.413 : :Chapter 13
01:10:44.991 : :Chapter 14
01:15:25.730 : :Chapter 15
01:21:45.901 : :Chapter 16
01:26:59.172 : :Chapter 17
01:32:18.199 : :Chapter 18
01:36:43.923 : :Chapter 19
01:43:25.574 : :Chapter 20
01:50:23.283 : :Chapter 21
01:54:22.898 : :Chapter 22
02:00:41.109 : :Chapter 23
02:07:53.332 : :Chapter 24