General

Unique ID : 75704415923467845927834099899272930997 (0x38F423E1319F50A89869511E4F9626B5)
Complete name : /movies/a/Alita_Battle_Angel_2019_1080p_BluRay_DDP7.1_TnP_30NAMA.mkv
Format : Matroska
Format version : Version 4 / Version 2
File size : 16.1 GiB
Duration : 2 h 1 min
Overall bit rate : 18.9 Mb/s
Movie name : Alita: Battle Angel (2019)
Encoded date : UTC 2019-07-12 03:47:46
Writing application : mkvmerge v35.0.0 ('All The Love In The World') 64-bit
Writing library : libebml v1.3.9 + libmatroska v1.5.2
Encoder : Nginx @ TnP
Released on : pt.m-team.cc (M-Team)

Video

ID : 1
Format : AVC
Format/Info : Advanced Video Codec
Format profile : High@L4.1
Format settings : CABAC / 5 Ref Frames
Format settings, CABAC : Yes
Format settings, RefFrames : 5 frames
Codec ID : V_MPEG4/ISO/AVC
Duration : 2 h 1 min
Bit rate : 17.2 Mb/s
Width : 1 920 pixels
Height : 804 pixels
Display aspect ratio : 2.40:1
Frame rate mode : Constant
Frame rate : 23.976 (24000/1001) FPS
Color space : YUV
Chroma subsampling : 4:2:0
Bit depth : 8 bits
Scan type : Progressive
Bits/(Pixel*Frame) : 0.464
Stream size : 14.6 GiB (91%)
Title : Alita: Battle Angel (2019) - Nginx @ TnP @ MTeam
Writing library : x264 core 157 r2969 d4099dd
Encoding settings : cabac=1 / ref=5 / deblock=1:-3:-3 / analyse=0x3:0x133 / me=umh / subme=11 / psy=1 / psy_rd=1.05:0.00 / mixed_ref=1 / me_range=48 / chroma_me=1 / trellis=2 / 8x8dct=1 / cqm=0 / deadzone=21,11 / fast_pskip=0 / chroma_qp_offset=-2 / threads=24 / lookahead_threads=4 / sliced_threads=0 / nr=0 / decimate=0 / interlaced=0 / bluray_compat=0 / constrained_intra=0 / bframes=8 / b_pyramid=2 / b_adapt=2 / b_bias=0 / direct=3 / weightb=1 / open_gop=0 / weightp=2 / keyint=250 / keyint_min=24 / scenecut=40 / intra_refresh=0 / rc_lookahead=250 / rc=crf / mbtree=0 / crf=15.8 / qcomp=0.61 / qpmin=0 / qpmax=69 / qpstep=4 / vbv_maxrate=62500 / vbv_bufsize=78125 / crf_max=0.0 / nal_hrd=none / filler=0 / ip_ratio=1.30 / pb_ratio=1.20 / aq=3:0.81 / zones=9006,9041,crf=13.8/9735,9830,crf=13.8/9879,9932,crf=13.8/10657,10778,crf=13.8/11080,11140,crf=13.8/18862,19244,crf=13.8/36079,36122,crf=13.8/36369,36440,crf=13.8/41207,41237,crf=13.8/41387,41418,crf=13.8/41459,41524,crf=13.8/42827,42855,crf=13.8/43140,43236,crf=13.8/43821,43845,crf=13.8/44542,44572,crf=13.8/44754,44783,crf=13.8/60152,60280,crf=13.8/66288,66313,crf=13.8/67256,67307,crf=13.8/69303,69404,crf=13.8/69691,69740,crf=13.8/74142,74245,crf=13.8/78734,78806,crf=13.8/86605,86626,crf=13.8/86832,86848,crf=13.8/94596,94662,crf=13.8/96528,96600,crf=13.8/96631,96681,crf=13.8/97747,97826,crf=13.8/99341,99380,crf=13.8/99581,99605,crf=13.8/115964,116010,crf=13.8/119406,119533,crf=13.8/119609,119769,crf=13.8/119940,120045,crf=13.8/120087,120160,crf=13.8/125968,125984,crf=13.8/146720,146759,crf=13.8/152295,152321,crf=13.8/152438,152462,crf=13.8/152529,152615,crf=13.8/152696,152734,crf=13.8/157547,157677,crf=13.8/168106,168182,crf=13.8/168183,175439,crf=22
Language : English
Default : Yes
Forced : No
Color range : Limited
Color primaries : BT.709
Matrix coefficients : BT.709

Audio

ID : 2
Format : E-AC-3
Format/Info : Enhanced Audio Coding 3
Format settings, Endianness : Big
Codec ID : A_EAC3
Duration : 2 h 1 min
Bit rate mode : Constant
Bit rate : 500 b/s
Channel(s) : 8 channels
Channel(s)_Original : 6 channels
Channel positions : Front: L C R, Side: L R, LFE
Sampling rate : 48.0 kHz
Frame rate : 187.500 FPS (256 SPF)
Compression mode : Lossy
Stream size : 1.31 GiB (8%)
Title : Dolby Digital Plus Audio / 7.1 / 48 kHz / 1536 kbps
Language : English
Service kind : Complete Main
Default : Yes
Forced : No

Text #1

ID : 3
Format : UTF-8
Codec ID : S_TEXT/UTF8
Codec ID/Info : UTF-8 Plain Text
Duration : 1 h 55 min
Bit rate : 46 b/s
Count of elements : 1588
Stream size : 39.5 KiB (0%)
Title : SDH
Language : English
Default : Yes
Forced : No

Text #2

ID : 4
Format : UTF-8
Codec ID : S_TEXT/UTF8
Codec ID/Info : UTF-8 Plain Text
Duration : 1 h 54 min
Bit rate : 41 b/s
Count of elements : 1324
Stream size : 34.6 KiB (0%)
Language : English
Default : No
Forced : No

Text #3

ID : 5
Format : PGS
Muxing mode : zlib
Codec ID : S_HDMV/PGS
Codec ID/Info : Picture based subtitle format used on BDs/HD-DVDs
Duration : 2 h 1 min
Bit rate : 22.8 kb/s
Count of elements : 2112
Stream size : 19.8 MiB (0%)
Language : Russian
Default : No
Forced : No

Text #4

ID : 6
Format : PGS
Muxing mode : zlib
Codec ID : S_HDMV/PGS
Codec ID/Info : Picture based subtitle format used on BDs/HD-DVDs
Duration : 2 h 1 min
Bit rate : 24.2 kb/s
Count of elements : 2522
Stream size : 21.0 MiB (0%)
Language : Estonian
Default : No
Forced : No

Text #5

ID : 7
Format : PGS
Muxing mode : zlib
Codec ID : S_HDMV/PGS
Codec ID/Info : Picture based subtitle format used on BDs/HD-DVDs
Duration : 2 h 1 min
Bit rate : 22.0 kb/s
Count of elements : 2558
Stream size : 19.0 MiB (0%)
Language : Hindi
Default : No
Forced : No

Text #6

ID : 8
Format : PGS
Muxing mode : zlib
Codec ID : S_HDMV/PGS
Codec ID/Info : Picture based subtitle format used on BDs/HD-DVDs
Duration : 2 h 1 min
Bit rate : 23.5 kb/s
Count of elements : 2520
Stream size : 20.4 MiB (0%)
Language : Latvian
Default : No
Forced : No

Text #7

ID : 9
Format : PGS
Muxing mode : zlib
Codec ID : S_HDMV/PGS
Codec ID/Info : Picture based subtitle format used on BDs/HD-DVDs
Duration : 2 h 1 min
Bit rate : 23.1 kb/s
Count of elements : 2508
Stream size : 20.1 MiB (0%)
Language : Lithuanian
Default : No
Forced : No

Text #8

ID : 10
Format : PGS
Muxing mode : zlib
Codec ID : S_HDMV/PGS
Codec ID/Info : Picture based subtitle format used on BDs/HD-DVDs
Duration : 2 h 1 min
Bit rate : 26.4 kb/s
Count of elements : 2534
Stream size : 22.9 MiB (0%)
Language : Tamil
Default : No
Forced : No

Text #9

ID : 11
Format : PGS
Muxing mode : zlib
Codec ID : S_HDMV/PGS
Codec ID/Info : Picture based subtitle format used on BDs/HD-DVDs
Duration : 2 h 1 min
Bit rate : 20.8 kb/s
Count of elements : 2520
Stream size : 18.1 MiB (0%)
Language : Telugu
Default : No
Forced : No

Text #10

ID : 12
Format : PGS
Muxing mode : zlib
Codec ID : S_HDMV/PGS
Codec ID/Info : Picture based subtitle format used on BDs/HD-DVDs
Duration : 2 h 1 min
Bit rate : 22.8 kb/s
Count of elements : 2520
Stream size : 19.8 MiB (0%)
Language : Ukrainian
Default : No
Forced : No

Text #11

ID : 13
Format : PGS
Muxing mode : zlib
Codec ID : S_HDMV/PGS
Codec ID/Info : Picture based subtitle format used on BDs/HD-DVDs
Duration : 2 h 1 min
Bit rate : 18.2 kb/s
Count of elements : 2530
Stream size : 15.8 MiB (0%)
Title : Cantonese
Language : Chinese
Default : No
Forced : No

Text #12

ID : 14
Format : PGS
Muxing mode : zlib
Codec ID : S_HDMV/PGS
Codec ID/Info : Picture based subtitle format used on BDs/HD-DVDs
Duration : 2 h 1 min
Bit rate : 18.6 kb/s
Count of elements : 2530
Stream size : 16.2 MiB (0%)
Title : Traditional
Language : Chinese
Default : No
Forced : No

Text #13

ID : 15
Format : PGS
Muxing mode : zlib
Codec ID : S_HDMV/PGS
Codec ID/Info : Picture based subtitle format used on BDs/HD-DVDs
Duration : 2 h 1 min
Bit rate : 20.8 kb/s
Count of elements : 2524
Stream size : 18.0 MiB (0%)
Language : Czech
Default : No
Forced : No

Text #14

ID : 16
Format : PGS
Muxing mode : zlib
Codec ID : S_HDMV/PGS
Codec ID/Info : Picture based subtitle format used on BDs/HD-DVDs
Duration : 2 h 1 min
Bit rate : 22.9 kb/s
Count of elements : 2524
Stream size : 19.9 MiB (0%)
Language : Hungarian
Default : No
Forced : No

Text #15

ID : 17
Format : PGS
Muxing mode : zlib
Codec ID : S_HDMV/PGS
Codec ID/Info : Picture based subtitle format used on BDs/HD-DVDs
Duration : 2 h 1 min
Bit rate : 15.4 kb/s
Count of elements : 2500
Stream size : 13.4 MiB (0%)
Language : Korean
Default : No
Forced : No

Text #16

ID : 18
Format : PGS
Muxing mode : zlib
Codec ID : S_HDMV/PGS
Codec ID/Info : Picture based subtitle format used on BDs/HD-DVDs
Duration : 2 h 1 min
Bit rate : 21.1 kb/s
Count of elements : 2470
Stream size : 18.3 MiB (0%)
Language : Polish
Default : No
Forced : No

Text #17

ID : 19
Format : PGS
Muxing mode : zlib
Codec ID : S_HDMV/PGS
Codec ID/Info : Picture based subtitle format used on BDs/HD-DVDs
Duration : 2 h 1 min
Bit rate : 22.7 kb/s
Count of elements : 2522
Stream size : 19.7 MiB (0%)
Language : Romanian
Default : No
Forced : No

Text #18

ID : 20
Format : PGS
Muxing mode : zlib
Codec ID : S_HDMV/PGS
Codec ID/Info : Picture based subtitle format used on BDs/HD-DVDs
Duration : 2 h 1 min
Bit rate : 23.5 kb/s
Count of elements : 2508
Stream size : 20.5 MiB (0%)
Language : Spanish
Default : No
Forced : No

Text #19

ID : 21
Format : PGS
Muxing mode : zlib
Codec ID : S_HDMV/PGS
Codec ID/Info : Picture based subtitle format used on BDs/HD-DVDs
Duration : 2 h 1 min
Bit rate : 19.1 kb/s
Count of elements : 2524
Stream size : 16.6 MiB (0%)
Language : Thai
Default : No
Forced : No

Menu

00:00:00.000 : en:Chapter 1
00:03:28.625 : en:Chapter 2
00:07:51.679 : en:Chapter 3
00:10:07.982 : en:Chapter 4
00:13:06.702 : en:Chapter 5
00:15:06.739 : en:Chapter 6
00:18:04.541 : en:Chapter 7
00:22:58.710 : en:Chapter 8
00:25:35.325 : en:Chapter 9
00:31:40.898 : en:Chapter 10
00:33:29.215 : en:Chapter 11
00:36:32.815 : en:Chapter 12
00:38:30.891 : en:Chapter 13
00:42:05.481 : en:Chapter 14
00:45:58.213 : en:Chapter 15
00:48:31.450 : en:Chapter 16
00:52:57.007 : en:Chapter 17
00:55:14.352 : en:Chapter 18
01:00:39.761 : en:Chapter 19
01:02:56.564 : en:Chapter 20
01:05:16.787 : en:Chapter 21
01:10:50.496 : en:Chapter 22
01:13:37.287 : en:Chapter 23
01:16:35.215 : en:Chapter 24
01:18:52.227 : en:Chapter 25
01:22:48.296 : en:Chapter 26
01:24:55.340 : en:Chapter 27
01:28:25.216 : en:Chapter 28
01:33:18.551 : en:Chapter 29
01:36:08.762 : en:Chapter 30
01:41:54.691 : en:Chapter 31
01:45:23.442 : en:Chapter 32
01:48:16.489 : en:Chapter 33
01:51:43.655 : en:Chapter 34
01:54:43.668 : en:Chapter 35
01:56:51.504 : en:Chapter 36