General

Unique ID : 187083649462626916088828716571591025851 (0x8CBF001112FFA3A5ADB62DDF8609A4BB)
Complete name : /movies/a/Aladdin_1992_DUBBED_720p_x265_BrRip_30nama_30NAMA.mkv
Format : Matroska
Format version : Version 4 / Version 2
File size : 720 MiB
Duration : 1 h 30 min
Overall bit rate : 1 110 kb/s
Encoded date : UTC 2017-06-04 11:24:36
Writing application : mkvmerge v9.0.1 ('Obstacles') 64bit
Writing library : libebml v1.3.3 + libmatroska v1.4.4

Video

ID : 1
Format : HEVC
Format/Info : High Efficiency Video Coding
Format profile : Main 10@L5.1@Main
Codec ID : V_MPEGH/ISO/HEVC
Duration : 1 h 30 min
Bit rate : 828 kb/s
Width : 1 280 pixels
Height : 688 pixels
Display aspect ratio : 1.85:1
Frame rate mode : Constant
Frame rate : 23.976 (24000/1001) FPS
Color space : YUV
Chroma subsampling : 4:2:0
Bit depth : 10 bits
Bits/(Pixel*Frame) : 0.039
Stream size : 537 MiB (75%)
Writing library : x265 2.4+2-5bc5e73760cdb61d:[Windows][GCC 6.3.0][64 bit] 10bit: KG7x [x265.ru]
Encoding settings : cpuid=1173503 / frame-threads=3 / numa-pools=8 / wpp / no-pmode / no-pme / no-psnr / no-ssim / log-level=2 / input-csp=1 / input-res=1280x688 / interlace=0 / total-frames=130426 / level-idc=51 / high-tier=1 / uhd-bd=0 / ref=3 / no-allow-non-conformance / no-repeat-headers / annexb / no-aud / no-hrd / info / hash=0 / no-temporal-layers / open-gop / min-keyint=23 / keyint=250 / bframes=4 / b-adapt=2 / b-pyramid / bframe-bias=0 / rc-lookahead=20 / lookahead-slices=0 / scenecut=40 / no-intra-refresh / ctu=64 / min-cu-size=8 / no-rect / no-amp / max-tu-size=32 / tu-inter-depth=1 / tu-intra-depth=1 / limit-tu=0 / rdoq-level=0 / dynamic-rd=0.00 / no-ssim-rd / signhide / no-tskip / nr-intra=0 / nr-inter=0 / no-constrained-intra / strong-intra-smoothing / max-merge=2 / limit-refs=3 / no-limit-modes / me=1 / subme=2 / merange=57 / temporal-mvp / weightp / no-weightb / no-analyze-src-pics / deblock=0:0 / sao / no-sao-non-deblock / rd=3 / no-early-skip / rskip / no-fast-intra / no-tskip-fast / no-cu-lossless / no-b-intra / rdpenalty=0 / psy-rd=2.00 / psy-rdoq=0.00 / no-rd-refine / analysis-mode=0 / no-lossless / cbqpoffs=0 / crqpoffs=0 / rc=abr / bitrate=827 / qcomp=0.60 / qpstep=4 / stats-write=0 / stats-read=2 / cplxblur=20.0 / qblur=0.5 / ipratio=1.40 / pbratio=1.30 / aq-mode=1 / aq-strength=1.00 / cutree / zone-count=0 / no-strict-cbr / qg-size=32 / no-rc-grain / qpmax=69 / qpmin=0 / sar=0 / overscan=0 / videoformat=5 / range=0 / colorprim=2 / transfer=2 / colormatrix=2 / chromaloc=0 / display-window=0 / max-cll=0,0 / min-luma=0 / max-luma=1023 / log2-max-poc-lsb=8 / vui-timing-info / vui-hrd-info / slices=1 / opt-qp-pps / opt-ref-list-length-pps / no-multi-pass-opt-rps / scenecut-bias=0.05 / no-opt-cu-delta-qp / no-aq-motion / no-hdr / no-hdr-opt / no-dhdr10-opt / refine-level=5 / no-limit-sao
Default : Yes
Forced : No

Audio #1

ID : 2
Format : MPEG Audio
Format version : Version 1
Format profile : Layer 3
Codec ID : A_MPEG/L3
Codec ID/Hint : MP3
Duration : 1 h 30 min
Bit rate mode : Constant
Bit rate : 128 kb/s
Channel(s) : 2 channels
Sampling rate : 44.1 kHz
Frame rate : 38.281 FPS (1152 SPF)
Compression mode : Lossy
Stream size : 83.0 MiB (12%)
Language : Persian
Default : No
Forced : No

Audio #2

ID : 3
Format : AAC
Format/Info : Advanced Audio Codec
Format profile : LC
Codec ID : A_AAC-2
Duration : 1 h 30 min
Bit rate : 151 kb/s
Channel(s) : 2 channels
Channel positions : Front: L R
Sampling rate : 48.0 kHz
Frame rate : 46.875 FPS (1024 SPF)
Compression mode : Lossy
Delay relative to video : 9 ms
Stream size : 98.2 MiB (14%)
Language : English
Default : Yes
Forced : No

Text

ID : 4
Format : UTF-8
Codec ID : S_TEXT/UTF8
Codec ID/Info : UTF-8 Plain Text
Duration : 1 h 26 min
Bit rate : 0 b/s
Count of elements : 2
Stream size : 36.0 Bytes (0%)
Language : Persian
Default : Yes
Forced : No

Menu

00:00:00.000 : en:00:00:00.000
00:03:06.061 : en:00:03:06.061
00:06:47.324 : en:00:06:47.324
00:12:37.423 : en:00:12:37.423
00:16:34.619 : en:00:16:34.619
00:19:39.053 : en:00:19:39.053
00:23:50.471 : en:00:23:50.471
00:27:39.324 : en:00:27:39.324
00:31:21.630 : en:00:31:21.630
00:34:55.677 : en:00:34:55.677
00:37:20.363 : en:00:37:20.363
00:41:13.388 : en:00:41:13.388
00:43:32.860 : en:00:43:32.860
00:47:17.043 : en:00:47:17.043
00:48:39.959 : en:00:48:39.959
00:55:20.025 : en:00:55:20.025
00:57:37.746 : en:00:57:37.746
01:03:04.906 : en:01:03:04.906
01:07:24.916 : en:01:07:24.916
01:10:07.412 : en:01:10:07.412
01:10:41.654 : en:01:10:41.654
01:15:31.610 : en:01:15:31.610
01:18:57.983 : en:01:18:57.983
01:21:41.438 : en:01:21:41.438
01:25:43.555 : en:01:25:43.555