General

Unique ID : 174838055765252829843201755445916078023 (0x838895AF024A3F619EF44FB7FBC00FC7)
Complete name : /movies/a/Aladdin_1992_DUBBED_1080p_BrRip_30nama_30NAMA.mkv
Format : Matroska
Format version : Version 4 / Version 2
File size : 1.45 GiB
Duration : 1 h 30 min
Overall bit rate : 2 282 kb/s
Encoded date : UTC 2017-06-04 11:25:28
Writing application : mkvmerge v9.0.1 ('Obstacles') 64bit
Writing library : libebml v1.3.3 + libmatroska v1.4.4

Video

ID : 1
Format : AVC
Format/Info : Advanced Video Codec
Format profile : High@L4.1
Format settings : CABAC / 4 Ref Frames
Format settings, CABAC : Yes
Format settings, RefFrames : 4 frames
Codec ID : V_MPEG4/ISO/AVC
Duration : 1 h 30 min
Bit rate : 2 000 kb/s
Width : 1 920 pixels
Height : 1 040 pixels
Display aspect ratio : 1.85:1
Frame rate mode : Constant
Frame rate : 23.976 (24000/1001) FPS
Color space : YUV
Chroma subsampling : 4:2:0
Bit depth : 8 bits
Scan type : Progressive
Bits/(Pixel*Frame) : 0.042
Stream size : 1.27 GiB (88%)
Writing library : x264 core 148 r2721 72d53ab
Encoding settings : cabac=1 / ref=4 / deblock=1:-1:-1 / analyse=0x3:0x133 / me=umh / subme=9 / psy=1 / psy_rd=1.00:0.00 / mixed_ref=1 / me_range=24 / chroma_me=1 / trellis=2 / 8x8dct=1 / cqm=0 / deadzone=21,11 / fast_pskip=1 / chroma_qp_offset=-2 / threads=48 / lookahead_threads=4 / sliced_threads=0 / nr=0 / decimate=1 / interlaced=0 / bluray_compat=0 / constrained_intra=0 / bframes=3 / b_pyramid=2 / b_adapt=2 / b_bias=0 / direct=3 / weightb=1 / open_gop=0 / weightp=2 / keyint=250 / keyint_min=23 / scenecut=40 / intra_refresh=0 / rc_lookahead=60 / rc=2pass / mbtree=1 / bitrate=2000 / ratetol=1.0 / qcomp=0.60 / qpmin=0 / qpmax=69 / qpstep=4 / cplxblur=20.0 / qblur=0.5 / vbv_maxrate=78125 / vbv_bufsize=62500 / nal_hrd=none / filler=0 / ip_ratio=1.40 / aq=1:1.00
Default : Yes
Forced : No

Audio #1

ID : 2
Format : MPEG Audio
Format version : Version 1
Format profile : Layer 3
Codec ID : A_MPEG/L3
Codec ID/Hint : MP3
Duration : 1 h 30 min
Bit rate mode : Constant
Bit rate : 128 kb/s
Channel(s) : 2 channels
Sampling rate : 44.1 kHz
Frame rate : 38.281 FPS (1152 SPF)
Compression mode : Lossy
Stream size : 83.0 MiB (6%)
Language : Persian
Default : No
Forced : No

Audio #2

ID : 3
Format : AAC
Format/Info : Advanced Audio Codec
Format profile : LC
Codec ID : A_AAC-2
Duration : 1 h 30 min
Bit rate : 151 kb/s
Channel(s) : 2 channels
Channel positions : Front: L R
Sampling rate : 48.0 kHz
Frame rate : 46.875 FPS (1024 SPF)
Compression mode : Lossy
Delay relative to video : 9 ms
Stream size : 98.2 MiB (7%)
Language : English
Default : Yes
Forced : No

Text

ID : 4
Format : UTF-8
Codec ID : S_TEXT/UTF8
Codec ID/Info : UTF-8 Plain Text
Duration : 1 h 26 min
Bit rate : 0 b/s
Count of elements : 2
Stream size : 36.0 Bytes (0%)
Language : Persian
Default : Yes
Forced : No

Menu

00:00:00.000 : en:00:00:00.000
00:03:06.061 : en:00:03:06.061
00:06:47.324 : en:00:06:47.324
00:12:37.423 : en:00:12:37.423
00:16:34.619 : en:00:16:34.619
00:19:39.053 : en:00:19:39.053
00:23:50.471 : en:00:23:50.471
00:27:39.324 : en:00:27:39.324
00:31:21.630 : en:00:31:21.630
00:34:55.677 : en:00:34:55.677
00:37:20.363 : en:00:37:20.363
00:41:13.388 : en:00:41:13.388
00:43:32.860 : en:00:43:32.860
00:47:17.043 : en:00:47:17.043
00:48:39.959 : en:00:48:39.959
00:55:20.025 : en:00:55:20.025
00:57:37.746 : en:00:57:37.746
01:03:04.906 : en:01:03:04.906
01:07:24.916 : en:01:07:24.916
01:10:07.412 : en:01:10:07.412
01:10:41.654 : en:01:10:41.654
01:15:31.610 : en:01:15:31.610
01:18:57.983 : en:01:18:57.983
01:21:41.438 : en:01:21:41.438
01:25:43.555 : en:01:25:43.555