General

Unique ID : 162843133256468017639969303353555231185 (0x7A82725827D386F2DFA028E9E37D21D1)
Complete name : /movies/a/A_Star_Is_Born_2018_720p_x265_10bit_BrRip_6CH_PSA_30NAMA.mkv
Format : Matroska
Format version : Version 4 / Version 2
File size : 1.01 GiB
Duration : 2 h 15 min
Overall bit rate : 1 065 kb/s
Movie name : PSArips.com | A.Star.Is.Born.2018.720p.10bit.BluRay.6CH.x265.HEVC-PSA
Encoded date : UTC 2019-01-27 08:07:54
Writing application : mkvmerge v30.1.0 ('Forever And More') 64-bit
Writing library : libebml v1.3.6 + libmatroska v1.4.9

Video

ID : 1
Format : HEVC
Format/Info : High Efficiency Video Coding
Format profile : Main 10@L3.1@Main
Codec ID : V_MPEGH/ISO/HEVC
Duration : 2 h 15 min
Bit rate : 851 kb/s
Width : 1 280 pixels
Height : 536 pixels
Display aspect ratio : 2.40:1
Frame rate mode : Constant
Frame rate : 23.976 (24000/1001) FPS
Color space : YUV
Chroma subsampling : 4:2:0
Bit depth : 10 bits
Bits/(Pixel*Frame) : 0.052
Stream size : 827 MiB (80%)
Default : Yes
Forced : No

Audio

ID : 2
Format : AAC
Format/Info : Advanced Audio Codec
Format profile : HE-AACv2 / HE-AAC / LC
Format settings : NBC / NBC / NBC / NBC / NBC / NBC / NBC / NBC / NBC / NBC / NBC / NBC / NBC / NBC / NBC / NBC / NBC / NBC / NBC / NBC / NBC / NBC / NBC / NBC / NBC / NBC / NBC / NBC / NBC / NBC / NBC / NBC / NBC / NBC / NBC / NBC / NBC / NBC / NBC / NBC / NBC / NBC / NBC / NBC / NBC / NBC / NBC / NBC / NBC / NBC / NBC / NBC / NBC / NBC / NBC / NBC / NBC / NBC / NBC / NBC / NBC / NBC / NBC / NBC / NBC / NBC / NBC / NBC / NBC / NBC / NBC / NBC / NBC / NBC / NBC / NBC / NBC / NBC / NBC / NBC / NBC / NBC / NBC / NBC / NBC / NBC / NBC / NBC / NBC / NBC / NBC / NBC / NBC / NBC / NBC / NBC / NBC / NBC / NBC / NBC / NBC / NBC / NBC / NBC / NBC / NBC / NBC / NBC / NBC / NBC / NBC / NBC / NBC / NBC / NBC / NBC / NBC / NBC / NBC / NBC / NBC / NBC / NBC / NBC / NBC / NBC / NBC / NBC / NBC / NBC / NBC / NBC / NBC / NBC / NBC / NBC / NBC / NBC / NBC / NBC / NBC / NBC / NBC / NBC / NBC / NBC / NBC / NBC / NBC / NBC / NBC / NBC / NBC / NBC / NBC / NBC / NBC / NBC / NBC / NBC / NBC / NBC / NBC / NBC / NBC / NBC / NBC / NBC / NBC / NBC / NBC / NBC / NBC / NBC / NBC / NBC / NBC / NBC / NBC / NBC / NBC / NBC / NBC / NBC / NBC / NBC / NBC / NBC / NBC / NBC / NBC / NBC / NBC / NBC / NBC / NBC / NBC / NBC / NBC / NBC / NBC / NBC / NBC / NBC / NBC / NBC / NBC / NBC / NBC / NBC / NBC / NBC / NBC / NBC / NBC / NBC / NBC / NBC / NBC / NBC / NBC / NBC / NBC / NBC / NBC / NBC / NBC / NBC / NBC / NBC / NBC / NBC / NBC / NBC / NBC / NBC / NBC / NBC / NBC / NBC / NBC / NBC / NBC / NBC / NBC / NBC / NBC / NBC / NBC / NBC / NBC / NBC / NBC / NBC / NBC / NBC / NBC / NBC / NBC / NBC / NBC / NBC / NBC / NBC / NBC / NBC / NBC / NBC / NBC / NBC / NBC / NBC / NBC / NBC / NBC / NBC / NBC / NBC / NBC / NBC / NBC / NBC / NBC / NBC / NBC / NBC / NBC / NBC / NBC / NBC / NBC / NBC / NBC / NBC / NBC / NBC / NBC / NBC / NBC / NBC / NBC / NBC / NBC / NBC / NBC / NBC / NBC / NBC / NBC / NBC / NBC / NBC / NBC / NBC / NBC / NBC / NBC / NBC / NBC / NBC / NBC / NBC / NBC / NBC / NBC / NBC / NBC / NBC / NBC / NBC / NBC / NBC / NBC / NBC / NBC / NBC / NBC / NBC / NBC / NBC / NBC / NBC / NBC / NBC / NBC / NBC / NBC / NBC / NBC / NBC / NBC / NBC / NBC / NBC / NBC / NBC / NBC / NBC / NBC / NBC / NBC / NBC / NBC / NBC / NBC / NBC / NBC / NBC / NBC / NBC / NBC / NBC / NBC / NBC / NBC / NBC / NBC / NBC / NBC / NBC / NBC / NBC / NBC / NBC / NBC / NBC / NBC / NBC / NBC / NBC / NBC / NBC / NBC / NBC / NBC / NBC / NBC / NBC / NBC / NBC / NBC / NBC / NBC / NBC / NBC / NBC / NBC / NBC / NBC / NBC / NBC / NBC / NBC / NBC / NBC / NBC / NBC / NBC / NBC / NBC / NBC / NBC / NBC / NBC / NBC / NBC / NBC / NBC / NBC / NBC / NBC / NBC / NBC / NBC / NBC / NBC / NBC / NBC / NBC / NBC / NBC / NBC / NBC / NBC / NBC / NBC / NBC / NBC / NBC / NBC / NBC / NBC / NBC / NBC / NBC / NBC / NBC / NBC / NBC / NBC / NBC / NBC / NBC / NBC / NBC / NBC / NBC / NBC / NBC / NBC / NBC / NBC / NBC / NBC / NBC / NBC / NBC / NBC / NBC / NBC / NBC / NBC / NBC / NBC / NBC / NBC / NBC / NBC / NBC / NBC / NBC / NBC / NBC / NBC / NBC / NBC / NBC / NBC / NBC / NBC / NBC / NBC / NBC / NBC / NBC / NBC / NBC / NBC / NBC / NBC / NBC / NBC / NBC / NBC / NBC / NBC / NBC / NBC / NBC / NBC / NBC / NBC / NBC / NBC / NBC / NBC / NBC / NBC / NBC / NBC / NBC / NBC / NBC / NBC / NBC / NBC / NBC / NBC / NBC / NBC / NBC / NBC / NBC / NBC / NBC / NBC / NBC / NBC / NBC / NBC / NBC / NBC / NBC / NBC / NBC / NBC / NBC / NBC / NBC / NBC / NBC / NBC / NBC / NBC / NBC / NBC / NBC / NBC / NBC / NBC / NBC / NBC / NBC / NBC / NBC / NBC / NBC / NBC / NBC / NBC / NBC / NBC / NBC / NBC / NBC / NBC / NBC / NBC / NBC / NBC / NBC / NBC / NBC / NBC / NBC / NBC / NBC / NBC / NBC / NBC / NBC / NBC / NBC / NBC / NBC / NBC / NBC / NBC / NBC / NBC / NBC / NBC / NBC / NBC / NBC / NBC / NBC / NBC / NBC / NBC / NBC / NBC / NBC / NBC / NBC / NBC / NBC / NBC / NBC / NBC / NBC / NBC / NBC / NBC / NBC / NBC / NBC / NBC / NBC / NBC / NBC / NBC / NBC / NBC / NBC / NBC / NBC / NBC / NBC / NBC / NBC / NBC / NBC / NBC / NBC / NBC / NBC / NBC / NBC / NBC / NBC / NBC / NBC / NBC / NBC / NBC / NBC / NBC / NBC / NBC / NBC / NBC / NBC / NBC / NBC / NBC / NBC / NBC / NBC / NBC / NBC / NBC / NBC / NBC / NBC / NBC / NBC / NBC / NBC / NBC / NBC / NBC / NBC / NBC / NBC / NBC / NBC / NBC / NBC / NBC / NBC / NBC / NBC / NBC / NBC / NBC / NBC / NBC / NBC / NBC / NBC / NBC / NBC / NBC / NBC / NBC / NBC / NBC / NBC / NBC / NBC / NBC / NBC / NBC / NBC / NBC / NBC / NBC / NBC / NBC / NBC / NBC / NBC / NBC / NBC / NBC / NBC / NBC / NBC / NBC / NBC / NBC / NBC / NBC / NBC / NBC / NBC / NBC / NBC / NBC / NBC / NBC / NBC / NBC / NBC / NBC / NBC / NBC / NBC / NBC / NBC / NBC / NBC / NBC / NBC / NBC / NBC / NBC / NBC / NBC / NBC / NBC / NBC / NBC / NBC / NBC / NBC / NBC / NBC / NBC / NBC / NBC / NBC / NBC / NBC / NBC / NBC / NBC / NBC / NBC / NBC / NBC / NBC / NBC / NBC / NBC / NBC / NBC / NBC / NBC / NBC / NBC / NBC / NBC / NBC / NBC / NBC / NBC / NBC / NBC / NBC / NBC / NBC / NBC / NBC / NBC / NBC / NBC / NBC / NBC / NBC / NBC / NBC / NBC / NBC / NBC / NBC / NBC / NBC / NBC / NBC / NBC / NBC / NBC / NBC / NBC / NBC / NBC / NBC / NBC / NBC / NBC / NBC / NBC / NBC / NBC / NBC / NBC / NBC / NBC / NBC / NBC / NBC / NBC / NBC / NBC / NBC / NBC / NBC / NBC / NBC / NBC / NBC / NBC / NBC / NBC / NBC / NBC / NBC / NBC / NBC / NBC / NBC / NBC / NBC / NBC / NBC / NBC / NBC / NBC / NBC / NBC / NBC / NBC / NBC / NBC / NBC / NBC / NBC / NBC / NBC / NBC / NBC / NBC / NBC / NBC / NBC / NBC / NBC / NBC / NBC / NBC / NBC / NBC / NBC / NBC / NBC / NBC / NBC / NBC / NBC / NBC / NBC / NBC / NBC / NBC / NBC / NBC / NBC / NBC / NBC / NBC / NBC / NBC / NBC / NBC / NBC / NBC / NBC / NBC / NBC / NBC / NBC / NBC / NBC / NBC / NBC / NBC / NBC / NBC / NBC / NBC / NBC / NBC / NBC / NBC / NBC / NBC / NBC / NBC / NBC / NBC / NBC / NBC / NBC / NBC / NBC / NBC / NBC / NBC / NBC / NBC / NBC / NBC / NBC / NBC / NBC / NBC / NBC / NBC / NBC / NBC / Explicit
Codec ID : A_AAC-2
Duration : 2 h 15 min
Bit rate : 212 kb/s
Channel(s) : 6 channels
Channel(s)_Original : 2 channels / 21 channels / 21 channels
Channel positions : Front: L R / Front: 9, Side: 11, Back: C / Front: 9, Side: 11, Back: C
Sampling rate : 48.0 kHz / 48.0 kHz / 24.0 kHz
Frame rate : 23.438 FPS (1024 SPF)
Compression mode : Lossy
Delay relative to video : 31 ms
Stream size : 206 MiB (20%)
Default : Yes
Forced : No

Text #1

ID : 3
Format : UTF-8
Codec ID : S_TEXT/UTF8
Codec ID/Info : UTF-8 Plain Text
Duration : 2 h 14 min
Bit rate : 65 b/s
Count of elements : 1923
Stream size : 64.4 KiB (0%)
Title : ENG
Language : English
Default : Yes
Forced : No

Text #2

ID : 4
Format : UTF-8
Codec ID : S_TEXT/UTF8
Codec ID/Info : UTF-8 Plain Text
Duration : 2 h 15 min
Bit rate : 69 b/s
Count of elements : 2105
Stream size : 69.0 KiB (0%)
Title : ENG SDH
Language : English
Default : No
Forced : No