General

Unique ID : 252144953015981647848627874452755344794 (0xBDB159FE212A151492F64F40E6A66D9A)
Complete name : /movies/a/A_Star_Is_Born_2018_1080p_BluRay_AdiT_30NAMA.mkv
Format : Matroska
Format version : Version 4 / Version 2
File size : 8.30 GiB
Duration : 2 h 15 min
Overall bit rate : 8 753 kb/s
Movie name : A Star Is Born (2018) 1080p Bluray AC3 x264 - AdiT
Encoded date : UTC 2019-02-03 11:28:53
Writing application : mkvmerge v30.1.0 ('Forever And More') 64-bit
Writing library : libebml v1.3.6 + libmatroska v1.4.9

Video

ID : 1
Format : AVC
Format/Info : Advanced Video Codec
Format profile : High@L4.1
Format settings : CABAC / 5 Ref Frames
Format settings, CABAC : Yes
Format settings, RefFrames : 5 frames
Codec ID : V_MPEG4/ISO/AVC
Duration : 2 h 15 min
Bit rate : 8 111 kb/s
Width : 1 920 pixels
Height : 800 pixels
Display aspect ratio : 2.40:1
Frame rate mode : Constant
Frame rate : 23.976 (24000/1001) FPS
Color space : YUV
Chroma subsampling : 4:2:0
Bit depth : 8 bits
Scan type : Progressive
Bits/(Pixel*Frame) : 0.220
Stream size : 7.69 GiB (93%)
Writing library : x264 core 155 r2901 7d0ff22
Encoding settings : cabac=1 / ref=5 / deblock=1:-2:-2 / analyse=0x3:0x133 / me=umh / subme=10 / psy=1 / psy_rd=1.00:0.05 / mixed_ref=1 / me_range=48 / chroma_me=1 / trellis=2 / 8x8dct=1 / cqm=0 / deadzone=21,11 / fast_pskip=0 / chroma_qp_offset=-3 / threads=18 / lookahead_threads=2 / sliced_threads=0 / nr=0 / decimate=0 / interlaced=0 / bluray_compat=0 / constrained_intra=0 / bframes=5 / b_pyramid=2 / b_adapt=2 / b_bias=0 / direct=1 / weightb=1 / open_gop=0 / weightp=2 / keyint=240 / keyint_min=23 / scenecut=40 / intra_refresh=0 / rc_lookahead=240 / rc=crf / mbtree=0 / crf=21.2 / qcomp=0.60 / qpmin=0 / qpmax=69 / qpstep=4 / vbv_maxrate=32000 / vbv_bufsize=38000 / crf_max=0.0 / nal_hrd=none / filler=0 / ip_ratio=1.30 / pb_ratio=1.20 / aq=3:0.80
Language : English
Default : Yes
Forced : No
Color range : Limited
Color primaries : BT.709
Transfer characteristics : BT.709
Matrix coefficients : BT.709

Audio

ID : 2
Format : AC-3
Format/Info : Audio Coding 3
Format settings, Endianness : Big
Codec ID : A_AC3
Duration : 2 h 15 min
Bit rate mode : Constant
Bit rate : 640 kb/s
Channel(s) : 6 channels
Channel positions : Front: L C R, Side: L R, LFE
Sampling rate : 48.0 kHz
Frame rate : 31.250 FPS (1536 SPF)
Bit depth : 16 bits
Compression mode : Lossy
Stream size : 621 MiB (7%)
Language : English
Service kind : Complete Main
Default : Yes
Forced : No

Text

ID : 3
Format : UTF-8
Codec ID : S_TEXT/UTF8
Codec ID/Info : UTF-8 Plain Text
Duration : 2 h 15 min
Bit rate : 66 b/s
Count of elements : 1924
Stream size : 65.6 KiB (0%)
Language : English
Default : Yes
Forced : No

Menu

00:00:00.000 : en:Chapter 1
00:08:03.316 : en:Chapter 2
00:15:25.675 : en:Chapter 3
00:20:26.100 : en:Chapter 4
00:29:59.840 : en:Chapter 5
00:36:07.832 : en:Chapter 6
00:38:33.520 : en:Chapter 7
00:49:23.669 : en:Chapter 8
00:54:12.291 : en:Chapter 9
00:56:41.648 : en:Chapter 10
01:07:03.645 : en:Chapter 11
01:15:37.533 : en:Chapter 12
01:21:02.357 : en:Chapter 13
01:24:22.015 : en:Chapter 14
01:34:38.298 : en:Chapter 15
01:43:44.802 : en:Chapter 16
01:50:53.063 : en:Chapter 17
02:01:20.607 : en:Chapter 18
02:05:20.430 : en:Chapter 19